爱黑胶论坛

 找回密码
 立即注册

QQ登录

只需一步,快速开始

搜索
热搜: 清洗 保养 入门
查看: 2899|回复: 7

贝多芬第六交响曲 【WAV镜像】

  [复制链接]
爱黑胶 发表于 2012-12-9 13:47 | 显示全部楼层 |阅读模式
专辑:贝多芬第六交响曲指挥:马塔契奇
乐团:NHK交响乐团
版本:ALT日版
格式:WAV镜像
下载:百度网盘
untitled.png
EAC Log:Exact Audio Copy V1.0 beta 3 from 29. August 2011
EAC 抓取日志文件从8. 十二月 2012, 17:37
NHK Symphony Orchestra & Lovro von Mataci'c / Beethoven‧Symphonie Nr.6 "Pastorale"
使用驱动器  :ASUS    SDR-08B1-U   Adapter: 1  ID: 1
读取模式      : 可靠Secure
使用精确流     : 是
清空音频缓存    : 否
使用 C2 指示器 : 否
读取偏移校正:               : 6
读取 Lead-In 和 Lead-Out : 否
用静音填充抓取中丢失偏移的采样       : 是
去除首尾静音块               : 否
在CRC 计算中使用了空样本       : 是
已用接口                  : Win NT 及 2000 本地 Win32 接口
所用输出模式: : 内部 WAV 函数
样本格式    : 44.100 Hz; 16 Bit; 立体声

已抓取 CD 的 TOC
     音轨 |    起始    |    长度    |  起始扇区  |  结束扇区  
    --------------------------------------------
      1 |  0:00.00 |  9:39.63 |      0 |  43487
      2 |  9:39.63 | 10:46.44 |  43488 |  91981
      3 | 20:26.32 |  5:30.10 |  91982 | 116741
      4 | 25:56.42 |  3:45.43 | 116742 | 133659
      5 | 29:42.10 |  8:50.23 | 133660 | 173432
      6 | 38:32.33 | 14:01.45 | 173433 | 236552
      7 | 52:34.03 |  9:15.73 | 236553 | 278250

范围状态及错误
已选择范围
     文件名 E:\古典CD抓轨 WAV\Altus-马塔契奇-贝多芬第六交响曲 日版\NHK Symphony Orchestra & Lovro von Mataci'c - Beethoven‧Symphonie Nr.6 ''Pastorale''.wav
     峰值电平 97.7 %
     抓取速度 2.9 X
范围质量 99.9 %
     复制 CRC 23DF040A
     复制成功
没有错误发生
状态报告结尾
---- CUETools DB Plugin V2.1.3
[CTDB TOCID: V7GlalgFwXz20D_Y7vg9uYhAqK0-] disk not present in database, Submit result: V7GlalgFwXz20D_Y7vg9uYhAqK0- has been uploaded

下载
游客,如果您要查看本帖隐藏内容请回复




回复

举报

crucifer 发表于 2012-12-20 22:31 | 显示全部楼层
黑胶论坛的第一贴哦 呵呵  下载看看
ttbt 发表于 2012-12-21 08:49 | 显示全部楼层
很经典的唱片,感谢
zzc 发表于 2012-12-29 17:25 | 显示全部楼层
不错
lulp 发表于 2012-12-30 12:17 | 显示全部楼层
shishinengfouzai
天涯一豪 发表于 2013-3-16 10:00 | 显示全部楼层
下来听听
lijingdong 发表于 2015-8-19 08:59 | 显示全部楼层
谢谢大大的分享
ooppcc 发表于 2018-8-19 16:27 | 显示全部楼层
很经典的唱片,感谢
您需要登录后才可以回帖 登录 | 立即注册

本版积分规则

QQ|关于我们|联系我们|小黑屋|手机版|网站导航|爱黑胶论坛 (浙公网安备 33010502005263号 浙ICP备12031905号-5

GMT+8, 2019-4-22 07:00 , Processed in 0.047555 second(s), 26 queries .

Powered by Discuz! X3.2

杭州聆翔文化艺术策划有限公司

快速回复 返回顶部 返回列表