爱黑胶论坛

 找回密码
 立即注册

QQ登录

只需一步,快速开始

搜索
热搜: 清洗 保养 入门
查看: 3349|回复: 15

珍藏分享 70老男孩 (2CD) [WAV/分轨/华为网盘]

  [复制链接]
gary 发表于 2012-12-18 16:16 | 显示全部楼层 |阅读模式
12091812350fb907bb034723c8.jpg
专辑名称:70老男孩(2CD)

演     唱:群星
出版发行:云南音像出版社
版号ISRC:CN-G10-10-412-00/A.J6
录     制:24Bit
采样频率:352.8k赫兹
发行日期:2010
音乐资源:CD
原盘抓轨:htm1
音乐格式:WAV
发     布:2012年9月18日

(纯属个人喜好和车载碟片原抓分享试听,不喜勿下,严禁转载。如下载试听,请在24小时内自删。如喜欢此碟和歌手,请支持购买正版。)

有些让人感觉美好的音乐是需要仔细聆听的,所以每次的播放就像自己心灵的一次旅行,随着每段时间都不定期更新更换。

当然,音乐的风格就不会只停留在普通流行乐上,就像完成一道道菜肴,在HiFi,Jazz、Bossa整体基调上,加些Lounge、Chillout、Deep、House和Downtempo、Lo-Fi来电音松弛,再添些Hit
Hop、R&B与rock节奏,之后再放点民谣和Soul给你简单、清新而深情,末了就带Pop来中和一下吧。

音乐是生活中不可缺少的调味剂,希望都能够喜欢其中的一些些,不祈望全部,只是众口难调,能找到自己喜爱的,就已经足够了。听觉是行动的指导,无论是音乐的律动,旋律线条的进行,音色的多种变化等都需要用我们的耳朵去分辩,听得见它们细微的变化才有可能体会到音乐的美妙之处。

专辑简介

穿过岁月,跨越代沟,30首经典动人的老男孩情歌。一首首老歌,一段段回忆。青春如同奔流的江河,一去不回来,不及道别。梦想这东西就和经典一样,永远不会因为时间而褪色,反而更显珍贵。

请相信,那些逝去的青春和梦想,总有一天会灿烂绽放!献给所有为梦想而奋斗的人们,愿天下有情人终成眷属,天下有梦人梦想成真!
游客,如果您要查看本帖隐藏内容请回复

专辑曲目

CD1

01 往事随风--齐秦
02 忘情水--刘德华
03 老情歌--吕方
04 大海--张雨生
05 无所谓--杨坤
06 光阴故事--罗大佑
07 爱那么重--巫启贤
08 背叛情歌--动力火车
09 三万英尺--迪克牛仔
10 让我喜欢让我憂--周华健
11 特别的爱给特别的你--伍思凯
12 我很醜,可是我很温柔--赵传
13 你的眼睛背叛你的心--郑中基
14 一场游戏一场梦--王杰
15 你怎么舍得我难过--黄品源

CD2

01 来生缘--刘德华
02 吻别--张学友
03 把悲伤留给自己--陈升
04 让我一次爱个够--庾澄庆
05 再回到从前--张镐哲
06 痛苦的人--伍佰
07 狠不下心--黄品源
08 单身情歌--林志炫
09 你知道我在等你吗--张洪量
10 爱一个人好难--苏永康
11 明天你是否依然爱我--童安格
12 是否我真的一无所有--王杰
13 为什么你背着我爱别人--许志安
14 九佰九十九朵玫瑰--邰正宵
15 今夜你会不会来--黎明

解码:htm1
EnAhAhAh...
YeahLi
Exact Audio Copy V0.99 prebeta 5 from 4. May 2009
EAC 抓取日志文件从11. 九月 2012, 1:09
htm1原抓 / 70老男孩A
使用驱动器  :PIONEER DVD-RW  DVR-219L  
Adapter: 2  ID: 2
读取模式     : 保护
使用精确流   : 是
废除音频缓冲 : 是
使用 C2 指针 : 否
读取偏移校正 : 6
读取 Lead-In 和 Lead-Out  : 否
用静音填充抓取中丢失偏移的采样 : 是
去除首尾静音块  : 否
在 CRC 计算中使用了空样本  : 否
已用接口: Win NT 及 2000 本地 Win32 接口
间隙处理 : 未检出,故附加至前一音轨
所用输出格式 : 内部 WAV 函数
样本格式     : 44.100 Hz;16 Bit;立体声
被抓轨 CD 的 TOC

音轨 |   开始   |   长度   |
起始扇区 | 结尾扇区

--------------------------------------------------

1  |  0:00.00 |  4:39.65 |  
     0  |   20989  

2  |  4:39.65 |  4:12.05 |  
20990  |   39894  

3  |  8:51.70 |  4:51.72 |  
39895  |   61791  

4  | 13:43.67 |  4:39.33 |  
61792  |   82749  

5  | 18:23.25 |  4:26.10 |  
82750  |  102709  

6  | 22:49.35 |  3:22.70
|  102710  |  117929  

7  | 26:12.30 |  4:52.34
|  117930  |  139863  

8  | 31:04.64 |  5:06.04
|  139864  |  162817  

9  | 36:10.68 |  4:45.08
|  162818  |  184200  

10  | 40:56.01 |  4:40.05
|  184201  |  205205  

11  | 45:36.06 |  4:53.51
|  205206  |  227231  

12  | 50:29.57 |  3:54.19
|  227232  |  244800  

13  | 54:24.01 |  4:31.16
|  244801  |  265141  

14  | 58:55.17 |  4:17.27
|  265142  |  284443  

15  | 63:12.44 |  4:53.74
|  284444  |  306492  


音轨  1

文件名 G:\华为网盘\70老男孩\A\Track01.wav
峰值电平 91.7 %
音轨质量 100.0 %
复制 CRC D791B35F
复制成功

音轨  2

文件名 G:\华为网盘\70老男孩\A\Track02.wav
峰值电平 100.0 %
音轨质量 100.0 %
复制 CRC E4D43476
复制成功

音轨  3

文件名 G:\华为网盘\70老男孩\A\Track03.wav
峰值电平 100.0 %
音轨质量 100.0 %
复制 CRC 56F99789
复制成功

音轨  4

文件名 G:\华为网盘\70老男孩\A\Track04.wav
峰值电平 100.0 %
音轨质量 99.9 %
复制 CRC 214AA44F
复制成功

音轨  5

文件名 G:\华为网盘\70老男孩\A\Track05.wav
峰值电平 100.0 %
音轨质量 100.0 %
复制 CRC 4B6C356D
复制成功

音轨  6

文件名 G:\华为网盘\70老男孩\A\Track06.wav
峰值电平 100.0 %
音轨质量 100.0 %
复制 CRC 760EBFB3
复制成功

音轨  7

文件名 G:\华为网盘\70老男孩\A\Track07.wav
峰值电平 100.0 %
音轨质量 99.9 %
复制 CRC 20C3D2C0
复制成功

音轨8

文件名 G:\华为网盘\70老男孩\A\Track08.wav
峰值电平 98.8 %
音轨质量 99.9 %
复制 CRC E7E5CB49
复制成功

音轨  9

文件名 G:\华为网盘\70老男孩\A\Track09.wav
峰值电平 89.1 %
音轨质量 100.0 %
复制 CRC 8CBAECF7
复制成功

音轨 10

文件名 G:\华为网盘\70老男孩\A\Track10.wav
峰值电平 100.0 %
音轨质量 100.0 %
复制 CRC 33674B12
复制成功

音轨 11

文件名 G:\华为网盘\70老男孩\A\Track11.wav
峰值电平 100.0 %
音轨质量 100.0 %
复制 CRC 02F4908F
复制成功

音轨 12

文件名 G:\华为网盘\70老男孩\A\Track12.wav
峰值电平 100.0 %
音轨质量 100.0 %
复制 CRC 9B6AFFCB
复制成功

音轨 13

文件名 G:\华为网盘\70老男孩\A\Track13.wav
峰值电平 97.7 %
音轨质量 100.0 %
复制 CRC B4A211DB
复制成功

音轨 14

文件名 G:\华为网盘\70老男孩\A\Track14.wav
峰值电平 100.0 %
音轨质量 99.9 %
复制 CRC FCB9151D
复制成功

音轨 15

文件名 G:\华为网盘\70老男孩\A\Track15.wav
峰值电平 100.0 %
音轨质量 100.0 %
复制 CRC 956FE2F2
复制成功

没有错误发生
状态报告结尾

Exact Audio Copy V0.99 prebeta 5 from 4. May
2009

EAC 抓取日志文件从11. 九月 2012, 2:10
htm1原抓 / 70老男孩B
使用驱动器  :PIONEER DVD-RW  DVR-219L  
Adapter: 2  ID: 2
读取模式     : 保护
使用精确流   : 是
废除音频缓冲 : 是
使用 C2 指针 : 否
读取偏移校正: 6
读取 Lead-In 和 Lead-Out: 否
用静音填充抓取中丢失偏移的采样 : 是
去除首尾静音块: 否
在 CRC 计算中使用了空样本: 否
已用接口 : Win NT 及 2000 本地 Win32 接口
间隙处理 : 未检出,故附加至前一音轨
所用输出格式 : 内部 WAV 函数
样本格式: 44.100 Hz;16 Bit;立体声
被抓轨 CD 的 TOC

音轨 |   开始   |   长度  
| 起始扇区 | 结尾扇区

--------------------------------------------------

1  |  0:00.00 |  3:50.18 |  
     0  |   17267  

2  |  3:50.18 |  5:05.00 |  
17268  |   40142  

3  |  8:55.18 |  4:25.74 |  
40143  |   60091  

4  | 13:21.17 |  4:17.23 |  
60092  |   79389  

5  | 17:38.40 |  4:18.55 |  
79390  |   98794  

6  | 21:57.20 |  4:42.48 |  
98795  |  119992  

7  | 26:39.68 |  4:20.48
|  119993  |  139540  

8  | 31:00.41 |  4:36.26
|  139541  |  160266  

9  | 35:36.67 |  4:14.00
|  160267  |  179316  

10  | 39:50.67 |  4:56.09
|  179317  |  201525  

11  | 44:47.01 |  4:15.49
|  201526  |  220699  

12  | 49:02.50 |  4:26.12
|  220700  |  240661  

13  | 53:28.62 |  5:02.36
|  240662  |  263347  

14  | 58:31.23 |  4:12.59
|  263348  |  282306  

15  | 62:44.07 |  4:13.47
|  282307  |  301328  


音轨  1

文件名 G:\华为网盘\70老男孩\B\Track01.wav
峰值电平 98.4 %
音轨质量 100.0 %
复制 CRC 501B52EF
复制成功

音轨  2

文件名 G:\华为网盘\70老男孩\B\Track02.wav
峰值电平 100.0 %
音轨质量 100.0 %
复制 CRC ADA8F8A6
复制成功

音轨  3

文件名 G:\华为网盘\70老男孩\B\Track03.wav
峰值电平 100.0 %
音轨质量 99.9 %
复制 CRC EBAA34BF
复制成功

音轨  4

文件名 G:\华为网盘\70老男孩\B\Track04.wav
峰值电平 98.6 %
音轨质量 100.0 %
复制 CRC C16F07AE
复制成功

音轨  5

文件名 G:\华为网盘\70老男孩\B\Track05.wav
峰值电平 100.0 %
音轨质量 100.0 %
复制 CRC BB6B7B34
复制成功

音轨  6

文件名 G:\华为网盘\70老男孩\B\Track06.wav
峰值电平 99.3 %
音轨质量 100.0 %
复制 CRC F1975CB6
复制成功

音轨  7

文件名 G:\华为网盘\70老男孩\B\Track07.wav
峰值电平 100.0 %
音轨质量 99.9 %
复制 CRC DAB59929
复制成功

音轨  8

文件名 G:\华为网盘\70老男孩\B\Track08.wav
峰值电平 91.7 %
音轨质量 100.0 %
复制 CRC BEA53B76
复制成功

音轨  9

文件名 G:\华为网盘\70老男孩\B\Track09.wav
峰值电平 92.1 %
音轨质量 99.9 %
复制 CRC 0FF2359C
复制成功

音轨 10

文件名 G:\华为网盘\70老男孩\B\Track10.wav
峰值电平 100.0 %
音轨质量 99.3 %
复制 CRC 9C19EF3A
复制成功

音轨 11

文件名 G:\华为网盘\70老男孩\B\Track11.wav
峰值电平 99.9 %
音轨质量 100.0 %
复制 CRC FF464D0C
复制成功

音轨 12

文件名 G:\华为网盘\70老男孩\B\Track12.wav
峰值电平 100.0 %
音轨质量 100.0 %
复制 CRC 5DA67F54
复制成功

音轨 13

文件名 G:\华为网盘\70老男孩\B\Track13.wav
可疑位置 0:04:59
峰值电平 98.6 %
音轨质量 99.7 %
复制 CRC 98888983
复制结束

音轨 14

文件名 G:\华为网盘\70老男孩\B\Track14.wav
峰值电平 100.0 %
音轨质量 100.0 %
复制 CRC E27E8CF6
复制成功

音轨 15

文件名 G:\华为网盘\70老男孩\B\Track15.wav
峰值电平 97.7 %
音轨质量 100.0 %
复制 CRC 4500AB54
复制成功
没有错误发生
状态报告结尾
回复

举报

59063394 发表于 2012-12-21 11:37 | 显示全部楼层
hyl16888 发表于 2013-1-31 16:32 | 显示全部楼层
sunzj1422 发表于 2013-5-9 08:50 | 显示全部楼层
谢谢楼主分享资源
vvviov 发表于 2013-7-18 02:28 | 显示全部楼层
好音乐,可惜要钱--
pangsu 发表于 2014-4-17 23:55 | 显示全部楼层
看着不赖,下来试试!
getnowhere 发表于 2014-4-18 09:30 | 显示全部楼层
顶~~~
zhuoling 发表于 2014-7-17 12:55 | 显示全部楼层
真心不错
风尘三侠1970 发表于 2014-7-18 11:13 | 显示全部楼层
谢谢分享
yikexiang 发表于 2014-8-9 13:15 | 显示全部楼层
GANXIELOUZHU
您需要登录后才可以回帖 登录 | 立即注册

本版积分规则

QQ|关于我们|联系我们|小黑屋|手机版|网站导航|爱黑胶论坛 ( 浙ICP备12031905号-5

GMT+8, 2017-11-24 07:59 , Processed in 0.190523 second(s), 29 queries .

Powered by Discuz! X3.2

杭州聆翔文化艺术策划有限公司

快速回复 返回顶部 返回列表