爱黑胶论坛

 找回密码
 立即注册

QQ登录

只需一步,快速开始

搜索
热搜: 清洗 保养 入门
查看: 2062|回复: 3

珍藏分享 民乐演奏影视插曲-新视听 (HDCD)[WAV/分轨/DBank]

  [复制链接]
gary 发表于 2012-12-27 15:27 | 显示全部楼层 |阅读模式
专辑名称:民乐演奏影视插曲-新视听 HIFI珍藏限量版(HDCD)
演     奏:群星
出     版:深圳音像公司
发     行:广东龙源音像有限公司
出 品 人:田 峰  欧阳永青
编     曲:李 凯  韩育才
音乐制作:张春一
制作统筹:张 鹤
录     音:徐小沛
录音助理:王 恒  鹿楠楠
混     音:徐小沛
母带处理:徐小沛
工 程 师:王  恒
文     案:张 鹤
翻     译:马赛楠  葛 亮
设     计:雷大卫
录 音 棚:中央电视台480平米模拟录音棚
ISRC编号:CN-F29-11-356-00/A.J6
产品编号:HD-057X
发行时间:2011年11月
音乐资源:HDCD
抓     轨:htm1
音乐格式:WAV
发     布:2012年5月24日
(纯属个人喜好和原抓分享试听,不喜勿下,严禁转载。如下载试听,请在24小时内自删。如喜欢此碟和歌手,请支持购买正版。)
专辑简介
银幕飘出的彩虹,曾经淌过的梦河,永不褪色的回忆。
《新视听》收录了由民乐演奏的影视插曲,包括《卧虎藏龙》、《怀念战友》、《红梅花儿开》等10首歌曲。回首独行的脚印,欣悦和凄楚,甜润和苦涩,勃勃雄心的张扬和知音难遇的孤独,许多许多的感慨有时会以“井喷之状”在人的脑海里激荡,于今除去无奈也只是无奈。惟一能做的是待夜色已冷,孤月西斜,于明月幽帘处悄然抚弄。
HD-MASTERING 采用1:1直刻无损高品质音源技术,日本MASTERING技术处理,德国后期母带制作。HIFI限量珍藏版。
专辑曲目
01 卧虎藏龙-二胡
02 神话-中阮、柳琴
03 怀念战友-柳琴
04 快乐的女战士-笙
05 乡村骑士-二胡
06 花儿为什么这样红-琵琶
07 英雄-二胡
08 大长今-三弦
09 红梅花儿开-琵琶
10 画皮-二胡
解码:htm1
Exact Audio Copy V0.99 prebeta 5 from 4. May 2009

EAC 抓取日志文件从22. 五月 2012, 2:21

原抓htm1 / 民乐演奏影视插曲-新视听

使用驱动器  :PIONEER DVD-RW  DVR-219L   Adapter: 2  ID: 2

读取模式     : 保护
使用精确流   : 是
废除音频缓冲 : 是
使用 C2 指针 : 否

读取偏移校正                   : 6
读取 Lead-In 和 Lead-Out       : 否
用静音填充抓取中丢失偏移的采样 : 是
去除首尾静音块                 : 否
在 CRC 计算中使用了空样本      : 否
已用接口                       : Win NT 及 2000 本地 Win32 接口
间隙处理                       : 未检出,故附加至前一音轨

所用输出格式 : 内部 WAV 函数
样本格式     : 44.100 Hz;16 Bit;立体声


被抓轨 CD 的 TOC

     音轨 |   开始   |   长度   | 起始扇区 | 结尾扇区
    --------------------------------------------------
       1  |  0:00.00 |  4:04.56 |       0  |   18355  
       2  |  4:04.56 |  4:49.03 |   18356  |   40033  
       3  |  8:53.59 |  3:55.34 |   40034  |   57692  
       4  | 12:49.18 |  2:45.74 |   57693  |   70141  
       5  | 15:35.17 |  4:19.46 |   70142  |   89612  
       6  | 19:54.63 |  4:43.65 |   89613  |  110902  
       7  | 24:38.53 |  3:49.11 |  110903  |  128088  
       8  | 28:27.64 |  3:01.33 |  128089  |  141696  
       9  | 31:29.22 |  3:55.10 |  141697  |  159331  
      10  | 35:24.32 |  7:25.45 |  159332  |  192751  


音轨  1

     文件名 G:\华为网盘\民乐演奏影视插曲-新视听\Track01.wav

     峰值电平 100.0 %
     音轨质量 100.0 %
     复制 CRC E754187D
     复制成功

音轨  2

     文件名 G:\华为网盘\民乐演奏影视插曲-新视听\Track02.wav

     峰值电平 95.4 %
     音轨质量 100.0 %
     复制 CRC F0D577C3
     复制成功

音轨  3

     文件名 G:\华为网盘\民乐演奏影视插曲-新视听\Track03.wav

     峰值电平 94.6 %
     音轨质量 99.9 %
     复制 CRC A1035A17
     复制成功

音轨  4

     文件名 G:\华为网盘\民乐演奏影视插曲-新视听\Track04.wav

     峰值电平 100.0 %
     音轨质量 100.0 %
     复制 CRC 65E704F9
     复制成功

音轨  5

     文件名 G:\华为网盘\民乐演奏影视插曲-新视听\Track05.wav

     峰值电平 99.9 %
     音轨质量 100.0 %
     复制 CRC FD125B8F
     复制成功

音轨  6

     文件名 G:\华为网盘\民乐演奏影视插曲-新视听\Track06.wav

     峰值电平 95.4 %
     音轨质量 100.0 %
     复制 CRC 8A0E46CC
     复制成功

音轨  7

     文件名 G:\华为网盘\民乐演奏影视插曲-新视听\Track07.wav

     峰值电平 79.3 %
     音轨质量 99.9 %
     复制 CRC 56A5FB1B
     复制成功

音轨  8

     文件名 G:\华为网盘\民乐演奏影视插曲-新视听\Track08.wav

     峰值电平 95.4 %
     音轨质量 100.0 %
     复制 CRC 4820910D
     复制成功

音轨  9

     文件名 G:\华为网盘\民乐演奏影视插曲-新视听\Track09.wav

     峰值电平 95.2 %
     音轨质量 100.0 %
     复制 CRC 01DBAFF7
     复制成功

音轨 10

     文件名 G:\华为网盘\民乐演奏影视插曲-新视听\Track10.wav

     峰值电平 99.9 %
     音轨质量 100.0 %
     复制 CRC B55734B9
     复制成功

没有错误发生

状态报告结尾
游客,如果您要查看本帖隐藏内容请回复

回复

举报

app-sg 发表于 2014-6-26 09:36 | 显示全部楼层
谢谢楼主
pangxiong2008 发表于 2014-9-13 17:40 | 显示全部楼层
dsaffffffffffffffffffffffffff
shenwenpeng 发表于 2015-2-6 08:56 | 显示全部楼层
NULL
您需要登录后才可以回帖 登录 | 立即注册

本版积分规则

QQ|关于我们|联系我们|小黑屋|手机版|网站导航|爱黑胶论坛 ( 浙ICP备12031905号-5

GMT+8, 2016-12-6 02:32 , Processed in 0.112245 second(s), 25 queries .

Powered by Discuz! X3.2

杭州聆翔文化艺术策划有限公司

快速回复 返回顶部 返回列表