爱黑胶论坛

 找回密码
 立即注册

QQ登录

只需一步,快速开始

搜索
热搜: 清洗 保养 入门
查看: 3128|回复: 21

索威试音天碟Ⅰ Ⅱ Ⅲ (非卖品CD)[WAV/分轨/华为网盘](三)

  [复制链接]
爱黑胶 发表于 2013-2-26 17:09 | 显示全部楼层 |阅读模式
120826031002fc9e3a5d8ba911.jpg
专辑名称:索威试音天碟Ⅲ(非卖品CD)
演唱演奏:群星
出     品:深圳索威科技有限公司
              索威数字音频技术股份有限公司
发行日期:2005
音乐格式:WAV
原盘抓轨:htm1
发     布:2012年8月26日

        (纯属个人原抓爱好,不喜勿下。只分享试听供测试,严禁转载。如下载试听,请在24小时内自删。如喜欢此碟和歌手,请支持购买索威共点同轴音箱。)


试音碟曲目


01 迪 斯 科---RUSSIA
02 迪 斯 科---路灯下的小姑娘
03 迪 斯 科---I`ll Be There
04 通俗女声---冬季到台北来看雨
05 通俗男声---再回到从前
06 女 中 音---痴痴的等
07 女 中 音---渡口
08 女 高 音---何日君再来
09 女 高 音---青藏高原
10 国外女声---The Hunter
11 国外男声---Plays The Fool
12 乡村民谣---加州旅馆
13 美声高音---Amours
14 美声合唱---Fortuna
15 浪漫钢琴---命运
16 交 响 乐---帕尔曼小提琴
17 萨 克 斯---回家
18 弹 拨 乐---闲云孤鹤
19 爵 士 乐---贝司与钢琴
20 动态测试---Ode to Ludwig
21 打 击 乐---第一鼓
22 多种音效---电影片断
23 特种音效---玻璃、飞机、鸟语、海浪

游客,如果您要查看本帖隐藏内容请回复



解码:htm1

Exact Audio Copy V0.99 prebeta 5 from 4. May 2009

EAC 抓取日志文件从21. 八月 2012, 3:35

原抓htm1 / 索威试音天碟Ⅲ

使用驱动器  :PIONEER DVD-RW  DVR-216   Adapter: 2  ID: 2

读取模式     : 保护
使用精确流   : 是
废除音频缓冲 : 是
使用 C2 指针 : 否

读取偏移校正                   : 6
读取 Lead-In 和 Lead-Out       : 否
用静音填充抓取中丢失偏移的采样 : 是
去除首尾静音块                 : 否
在 CRC 计算中使用了空样本      : 否
已用接口                       : Win NT 及 2000 本地 Win32 接口
间隙处理                       : 未检出,故附加至前一音轨

所用输出格式 : 内部 WAV 函数
样本格式     : 44.100 Hz;16 Bit;立体声


被抓轨 CD 的 TOC

     音轨 |   开始   |   长度   | 起始扇区 | 结尾扇区
    --------------------------------------------------
       1  |  0:00.00 |  3:55.07 |       0  |   17631  
       2  |  3:55.07 |  5:13.11 |   17632  |   41117  
       3  |  9:08.18 |  6:02.43 |   41118  |   68310  
       4  | 15:10.61 |  4:12.48 |   68311  |   87258  
       5  | 19:23.34 |  3:20.02 |   87259  |  102260  
       6  | 22:43.36 |  5:05.02 |  102261  |  125137  
       7  | 27:48.38 |  3:35.54 |  125138  |  141316  
       8  | 31:24.17 |  2:56.50 |  141317  |  154566  
       9  | 34:20.67 |  3:45.59 |  154567  |  171500  
      10  | 38:06.51 |  4:54.62 |  171501  |  193612  
      11  | 43:01.38 |  4:28.08 |  193613  |  213720  
      12  | 47:29.46 |  6:58.28 |  213721  |  245098  
      13  | 54:27.74 |  0:36.15 |  245099  |  247813  
      14  | 55:04.14 |  2:37.72 |  247814  |  259660  
      15  | 57:42.11 |  3:39.52 |  259661  |  276137  
      16  | 61:21.63 |  2:29.68 |  276138  |  287380  
      17  | 63:51.56 |  3:03.64 |  287381  |  301169  
      18  | 66:55.45 |  3:42.05 |  301170  |  317824  
      19  | 70:37.50 |  2:04.51 |  317825  |  327175  
      20  | 72:42.26 |  1:26.34 |  327176  |  333659  
      21  | 74:08.60 |  1:49.46 |  333660  |  341880  
      22  | 75:58.31 |  2:38.19 |  341881  |  353749  
      23  | 78:36.50 |  1:47.65 |  353750  |  361839  


音轨  1

     文件名 G:\华为网盘\索威试音天碟Ⅲ\Track01.wav

     峰值电平 94.5 %
     音轨质量 100.0 %
     复制 CRC AE9E2F5F
     复制成功

音轨  2

     文件名 G:\华为网盘\索威试音天碟Ⅲ\Track02.wav

     峰值电平 94.4 %
     音轨质量 100.0 %
     复制 CRC 9936A9B0
     复制成功

音轨  3

     文件名 G:\华为网盘\索威试音天碟Ⅲ\Track03.wav

     峰值电平 63.8 %
     音轨质量 100.0 %
     复制 CRC 32B322B3
     复制成功

音轨  4

     文件名 G:\华为网盘\索威试音天碟Ⅲ\Track04.wav

     峰值电平 79.9 %
     音轨质量 100.0 %
     复制 CRC EE30D48D
     复制成功

音轨  5

     文件名 G:\华为网盘\索威试音天碟Ⅲ\Track05.wav

     峰值电平 93.9 %
     音轨质量 100.0 %
     复制 CRC 67DC35A4
     复制成功

音轨  6

     文件名 G:\华为网盘\索威试音天碟Ⅲ\Track06.wav

     峰值电平 71.4 %
     音轨质量 100.0 %
     复制 CRC 2C478D6D
     复制成功

音轨  7

     文件名 G:\华为网盘\索威试音天碟Ⅲ\Track07.wav

     峰值电平 50.9 %
     音轨质量 100.0 %
     复制 CRC F14D069D
     复制成功

音轨  8

     文件名 G:\华为网盘\索威试音天碟Ⅲ\Track08.wav

     峰值电平 92.4 %
     音轨质量 100.0 %
     复制 CRC DC914BB6
     复制成功

音轨  9

     文件名 G:\华为网盘\索威试音天碟Ⅲ\Track09.wav

     峰值电平 71.9 %
     音轨质量 100.0 %
     复制 CRC B648E62A
     复制成功

音轨 10

     文件名 G:\华为网盘\索威试音天碟Ⅲ\Track10.wav

     峰值电平 75.8 %
     音轨质量 100.0 %
     复制 CRC 1D892AF6
     复制成功

音轨 11

     文件名 G:\华为网盘\索威试音天碟Ⅲ\Track11.wav

     峰值电平 100.0 %
     音轨质量 100.0 %
     复制 CRC 04D1A46E
     复制成功

音轨 12

     文件名 G:\华为网盘\索威试音天碟Ⅲ\Track12.wav

     峰值电平 80.0 %
     音轨质量 100.0 %
     复制 CRC 8563332E
     复制成功

音轨 13

     文件名 G:\华为网盘\索威试音天碟Ⅲ\Track13.wav

     峰值电平 41.6 %
     音轨质量 100.0 %
     复制 CRC 2A0D98D7
     复制成功

音轨 14

     文件名 G:\华为网盘\索威试音天碟Ⅲ\Track14.wav

     峰值电平 63.9 %
     音轨质量 100.0 %
     复制 CRC 28912672
     复制成功

音轨 15

     文件名 G:\华为网盘\索威试音天碟Ⅲ\Track15.wav

     峰值电平 88.6 %
     音轨质量 100.0 %
     复制 CRC 39E00310
     复制成功

音轨 16

     文件名 G:\华为网盘\索威试音天碟Ⅲ\Track16.wav

     峰值电平 64.0 %
     音轨质量 100.0 %
     复制 CRC 80BCF2FD
     复制成功

音轨 17

     文件名 G:\华为网盘\索威试音天碟Ⅲ\Track17.wav

     峰值电平 100.0 %
     音轨质量 100.0 %
     复制 CRC 198AC451
     复制成功

音轨 18

     文件名 G:\华为网盘\索威试音天碟Ⅲ\Track18.wav

     峰值电平 83.0 %
     音轨质量 100.0 %
     复制 CRC 8D3A2E84
     复制成功

音轨 19

     文件名 G:\华为网盘\索威试音天碟Ⅲ\Track19.wav

     峰值电平 47.9 %
     音轨质量 100.0 %
     复制 CRC FB63FE85
     复制成功

音轨 20

     文件名 G:\华为网盘\索威试音天碟Ⅲ\Track20.wav

     峰值电平 98.3 %
     音轨质量 100.0 %
     复制 CRC 5F230870
     复制成功

音轨 21

     文件名 G:\华为网盘\索威试音天碟Ⅲ\Track21.wav

     峰值电平 99.4 %
     音轨质量 100.0 %
     复制 CRC 6CF4B11E
     复制成功

音轨 22

     文件名 G:\华为网盘\索威试音天碟Ⅲ\Track22.wav

     峰值电平 80.0 %
     音轨质量 100.0 %
     复制 CRC E8AE78F5
     复制成功

音轨 23

     文件名 G:\华为网盘\索威试音天碟Ⅲ\Track23.wav

     峰值电平 100.0 %
     音轨质量 100.0 %
     复制 CRC 492EFD08
     复制成功

没有错误发生

状态报告结尾
回复

举报

ritchie059 发表于 2013-3-8 12:49 | 显示全部楼层
谢谢楼主分享 ,, ,
chunghwa1977 发表于 2013-3-10 20:34 | 显示全部楼层
好资源    谢谢分享
天涯一豪 发表于 2013-3-15 21:07 | 显示全部楼层
果断顶上啊
whitedog 发表于 2013-5-20 15:08 | 显示全部楼层
谢谢分享~DD的东西很好
卖炭佬 发表于 2013-5-20 17:35 | 显示全部楼层
谢谢
gemchai 发表于 2013-6-6 00:40 | 显示全部楼层
都不错11
不洗澡的鱼 发表于 2013-9-7 20:34 | 显示全部楼层

好资源    谢谢分享
anyi38 发表于 2013-12-24 16:07 | 显示全部楼层
可以下载吗?
Z1122LL 发表于 2014-1-22 20:51 | 显示全部楼层
资源    谢谢分享
您需要登录后才可以回帖 登录 | 立即注册

本版积分规则

QQ|关于我们|联系我们|小黑屋|手机版|网站导航|爱黑胶论坛 ( 浙ICP备12031905号-5

GMT+8, 2016-12-5 18:34 , Processed in 0.140971 second(s), 29 queries .

Powered by Discuz! X3.2

杭州聆翔文化艺术策划有限公司

快速回复 返回顶部 返回列表