爱黑胶论坛

 找回密码
 立即注册

QQ登录

只需一步,快速开始

搜索
热搜: 清洗 保养 入门
查看: 859|回复: 3

珍藏分享 霖音乐-长笛(DSD 2CD)[WAV/分轨/DBank]

  [复制链接]
爱黑胶 发表于 2013-3-17 14:41 | 显示全部楼层 |阅读模式
专辑名称:霖音乐-长笛(DSD-2CD)
演     奏:群星
出     版:长春电影制片厂银声音像出版社
发     行:广州菲爾文化传播有限公司
ISRC编码:CN-D16-08-331-00/A.J6
产品编号:RC-026
资源格式:DSD
发行日期:2008
原盘抓轨:htm1
音乐格式:WAV
发     布:2011年11月19日


长笛音色柔美清澈,音域宽广,中、高音区明朗如第一缕阳光;低音区婉约如冰澈的月光;而且擅长花腔,演奏技巧华丽多样,在交响乐队中常担任主要旋律,是重要的独奏乐器。

专辑曲目

A

01 土耳其进行曲
02 小天鹅之舞
03 爱的忧伤
04 长笛奏鸣曲
05 小步舞曲
06 乘着歌声的翅膀
07 大调练习曲
08 可爱的家
09 圣母颂
10 小狗圆舞曲
11 小夜曲
12 阿蘭胡埃斯之爱
13 幽默曲
14 阿莱城的姑娘

B

01 羅密歐与朱麗葉
02 花之圆舞曲
03 第一号弦乐6重奏
04 阿莱城女孩组曲
05 第二号钢琴协奏曲
06 爱之恋
07 丹尼男孩
08 第二十号钢琴协奏曲
09 练习曲
10 明月之光
11 西西里舞曲
12 月光曲
13 越战獵鹿人短歌

Exact Audio Copy V0.99 prebeta 5 from 4. May 2009

EAC 抓取日志文件从16. 十一月 2011, 1:34

原抓htm1 / 霖音乐-长笛A

使用驱动器  :PIONEER DVD-RW  DVR-219L   Adapter: 2  ID: 2

读取模式     : 保护
使用精确流   : 是
废除音频缓冲 : 是
使用 C2 指针 : 否

读取偏移校正                   : 6
读取 Lead-In 和 Lead-Out       : 否
用静音填充抓取中丢失偏移的采样 : 是
去除首尾静音块                 : 否
在 CRC 计算中使用了空样本      : 否
已用接口                       : Win NT 及 2000 本地 Win32 接口
间隙处理                       : 未检出,故附加至前一音轨

所用输出格式 : 内部 WAV 函数
样本格式     : 44.100 Hz;16 Bit;立体声


被抓轨 CD 的 TOC

     音轨 |   开始   |   长度   | 起始扇区 | 结尾扇区
    --------------------------------------------------
       1  |  0:00.00 |  2:04.16 |       0  |    9315  
       2  |  2:04.16 |  2:00.60 |    9316  |   18375  
       3  |  4:05.01 |  3:35.15 |   18376  |   34515  
       4  |  7:40.16 |  2:16.56 |   34516  |   44771  
       5  |  9:56.72 |  2:46.51 |   44772  |   57272  
       6  | 12:43.48 |  3:26.73 |   57273  |   72795  
       7  | 16:10.46 |  3:01.18 |   72796  |   86388  
       8  | 19:11.64 |  3:23.23 |   86389  |  101636  
       9  | 22:35.12 |  4:26.13 |  101637  |  121599  
      10  | 27:01.25 |  1:59.33 |  121600  |  130557  
      11  | 29:00.58 |  3:48.58 |  130558  |  147715  
      12  | 32:49.41 |  3:30.55 |  147716  |  163520  
      13  | 36:20.21 |  3:23.50 |  163521  |  178795  
      14  | 39:43.71 |  3:01.39 |  178796  |  192409  


音轨  1

     文件名 G:\数据银行\霖音乐-长笛\A\Track01.wav

     峰值电平 99.4 %
     音轨质量 99.9 %
     复制 CRC DAF9CE12
     复制成功

音轨  2

     文件名 G:\数据银行\霖音乐-长笛\A\Track02.wav

     峰值电平 79.4 %
     音轨质量 100.0 %
     复制 CRC 91C0C6A0
     复制成功

音轨  3

     文件名 G:\数据银行\霖音乐-长笛\A\Track03.wav

     峰值电平 86.1 %
     音轨质量 99.9 %
     复制 CRC 5CBFE4F8
     复制成功

音轨  4

     文件名 G:\数据银行\霖音乐-长笛\A\Track04.wav

     峰值电平 74.5 %
     音轨质量 100.0 %
     复制 CRC DDAF85F6
     复制成功

音轨  5

     文件名 G:\数据银行\霖音乐-长笛\A\Track05.wav

     峰值电平 79.4 %
     音轨质量 99.9 %
     复制 CRC 90B7061E
     复制成功

音轨  6

     文件名 G:\数据银行\霖音乐-长笛\A\Track06.wav

     峰值电平 79.4 %
     音轨质量 100.0 %
     复制 CRC 0390A502
     复制成功

音轨  7

     文件名 G:\数据银行\霖音乐-长笛\A\Track07.wav

     峰值电平 79.4 %
     音轨质量 100.0 %
     复制 CRC AB64B032
     复制成功

音轨  8

     文件名 G:\数据银行\霖音乐-长笛\A\Track08.wav

     峰值电平 77.7 %
     音轨质量 100.0 %
     复制 CRC 5D52F868
     复制成功

音轨  9

     文件名 G:\数据银行\霖音乐-长笛\A\Track09.wav

     峰值电平 79.4 %
     音轨质量 100.0 %
     复制 CRC 388215D4
     复制成功

音轨 10

     文件名 G:\数据银行\霖音乐-长笛\A\Track10.wav

     峰值电平 68.7 %
     音轨质量 100.0 %
     复制 CRC B1DA2349
     复制成功

音轨 11

     文件名 G:\数据银行\霖音乐-长笛\A\Track11.wav

     峰值电平 79.4 %
     音轨质量 99.9 %
     复制 CRC ED73176D
     复制成功

音轨 12

     文件名 G:\数据银行\霖音乐-长笛\A\Track12.wav

     峰值电平 100.0 %
     音轨质量 100.0 %
     复制 CRC 6DD93321
     复制成功

音轨 13

     文件名 G:\数据银行\霖音乐-长笛\A\Track13.wav

     峰值电平 88.4 %
     音轨质量 100.0 %
     复制 CRC 00735F56
     复制成功

音轨 14

     文件名 G:\数据银行\霖音乐-长笛\A\Track14.wav

     峰值电平 93.9 %
     音轨质量 100.0 %
     复制 CRC 3552C2ED
     复制成功

没有错误发生

状态报告结尾


Exact Audio Copy V0.99 prebeta 5 from 4. May 2009

EAC 抓取日志文件从16. 十一月 2011, 0:58

原抓htm1 / 霖音乐-长笛B

使用驱动器  :PIONEER DVD-RW  DVR-219L   Adapter: 2  ID: 2

读取模式     : 保护
使用精确流   : 是
废除音频缓冲 : 是
使用 C2 指针 : 否

读取偏移校正                   : 6
读取 Lead-In 和 Lead-Out       : 否
用静音填充抓取中丢失偏移的采样 : 是
去除首尾静音块                 : 否
在 CRC 计算中使用了空样本      : 否
已用接口                       : Win NT 及 2000 本地 Win32 接口
间隙处理                       : 未检出,故附加至前一音轨

所用输出格式 : 内部 WAV 函数
样本格式     : 44.100 Hz;16 Bit;立体声


被抓轨 CD 的 TOC

     音轨 |   开始   |   长度   | 起始扇区 | 结尾扇区
    --------------------------------------------------
       1  |  0:00.00 |  3:35.70 |       0  |   16194  
       2  |  3:35.70 |  4:51.20 |   16195  |   38039  
       3  |  8:27.15 |  3:53.67 |   38040  |   55581  
       4  | 12:21.07 |  4:11.35 |   55582  |   74441  
       5  | 16:32.42 |  3:17.67 |   74442  |   89283  
       6  | 19:50.34 |  3:34.49 |   89284  |  105382  
       7  | 23:25.08 |  3:13.05 |  105383  |  119862  
       8  | 26:38.13 |  4:32.27 |  119863  |  140289  
       9  | 31:10.40 |  3:32.70 |  140290  |  156259  
      10  | 34:43.35 |  3:50.55 |  156260  |  173564  
      11  | 38:34.15 |  3:10.66 |  173565  |  187880  
      12  | 41:45.06 |  4:11.64 |  187881  |  206769  
      13  | 45:56.70 |  3:22.60 |  206770  |  221979  


音轨  1

     文件名 G:\数据银行\霖音乐-长笛\B\Track01.wav

     峰值电平 70.7 %
     音轨质量 100.0 %
     复制 CRC 09902002
     复制成功

音轨  2

     文件名 G:\数据银行\霖音乐-长笛\B\Track02.wav

     峰值电平 70.7 %
     音轨质量 100.0 %
     复制 CRC 7ED68B26
     复制成功

音轨  3

     文件名 G:\数据银行\霖音乐-长笛\B\Track03.wav

     峰值电平 70.7 %
     音轨质量 100.0 %
     复制 CRC 8083060F
     复制成功

音轨  4

     文件名 G:\数据银行\霖音乐-长笛\B\Track04.wav

     峰值电平 75.5 %
     音轨质量 100.0 %
     复制 CRC 7B6ACEA8
     复制成功

音轨  5

     文件名 G:\数据银行\霖音乐-长笛\B\Track05.wav

     峰值电平 87.3 %
     音轨质量 99.9 %
     复制 CRC D5CC9601
     复制成功

音轨  6

     文件名 G:\数据银行\霖音乐-长笛\B\Track06.wav

     峰值电平 96.0 %
     音轨质量 100.0 %
     复制 CRC CE33D93E
     复制成功

音轨  7

     文件名 G:\数据银行\霖音乐-长笛\B\Track07.wav

     峰值电平 70.7 %
     音轨质量 100.0 %
     复制 CRC D7C73637
     复制成功

音轨  8

     文件名 G:\数据银行\霖音乐-长笛\B\Track08.wav

     峰值电平 70.7 %
     音轨质量 100.0 %
     复制 CRC E2C9AE14
     复制成功

音轨  9

     文件名 G:\数据银行\霖音乐-长笛\B\Track09.wav

     峰值电平 70.7 %
     音轨质量 100.0 %
     复制 CRC 4D4A2B86
     复制成功

音轨 10

     文件名 G:\数据银行\霖音乐-长笛\B\Track10.wav

     峰值电平 57.4 %
     音轨质量 100.0 %
     复制 CRC 2C15C687
     复制成功

音轨 11

     文件名 G:\数据银行\霖音乐-长笛\B\Track11.wav

     峰值电平 56.6 %
     音轨质量 100.0 %
     复制 CRC 356E5672
     复制成功

音轨 12

     文件名 G:\数据银行\霖音乐-长笛\B\Track12.wav

     峰值电平 70.7 %
     音轨质量 100.0 %
     复制 CRC F38CDD22
     复制成功

音轨 13

     文件名 G:\数据银行\霖音乐-长笛\B\Track13.wav

     峰值电平 67.2 %
     音轨质量 100.0 %
     复制 CRC E0AD3CBD
     复制成功

没有错误发生

状态报告结尾

地址下载
游客,如果您要查看本帖隐藏内容请回复

该贴已经同步到 黑胶唱片的微博

评分

参与人数 1LP币 +5 收起 理由
余同学 + 5 很给力!

查看全部评分

回复

举报

shenwenpeng 发表于 2015-2-5 20:45 | 显示全部楼层
NULL
Afa 发表于 2015-2-5 22:54 | 显示全部楼层
謝謝分享這動聽2CD的"長笛音樂"專輯,心兌納欣賞了,感恩。
chacha 发表于 2016-4-24 10:21 | 显示全部楼层
感谢楼主分享
您需要登录后才可以回帖 登录 | 立即注册

本版积分规则

QQ|关于我们|联系我们|小黑屋|手机版|网站导航|爱黑胶论坛 ( 浙ICP备12031905号-5

GMT+8, 2016-12-8 10:00 , Processed in 0.143640 second(s), 27 queries .

Powered by Discuz! X3.2

杭州聆翔文化艺术策划有限公司

快速回复 返回顶部 返回列表