爱黑胶论坛

 找回密码
 立即注册

QQ登录

只需一步,快速开始

搜索
热搜: 清洗 保养 入门
查看: 2563|回复: 25

珍藏分享《欧美超级巨星精选集》(华纳CD)[WAV/分轨/DBank]

   关闭 [复制链接]
爱黑胶 发表于 2013-3-18 14:32 | 显示全部楼层 |阅读模式
专辑名称:欧美超级巨星精选集(华纳CD)演     唱:欧美巨星出     品:华纳唱片公司华纳编号:9548-39488-2发行日期:2001音乐格式:WAV原盘抓轨:htm1发     布:2011年7月10日
      (纯属个人喜好和珍藏片分享试听,严禁转载!不喜勿下,如下载试听,请在24小时内自删。)
专辑简介
    华纳唱片公司推出的这张《超级巨星》唱片,是一张典型的欧美音乐选辑,它不仅让你认识(或再次接触到)一些被媒体和大众称为“超级巨星”的欧美大牌流行歌手(组合),还让你欣赏(或重温)到70分钟曾红遍全球的流行音乐。
      是哪些“超级巨星”值得大家垂注呢?是知名度最高的公众人物之一、被定义为后现代文化形象代表的麦当娜;是曾在戴安娜王妃去世葬礼上于收看电视转播的十几亿观众眼前操琴献唱《风中之烛》的那个埃尔顿·约翰(Elton John);是单枪匹马弹着一把木吉他,用沧桑的嗓子唱着那首《泪撒天堂》勇夺格莱美数项大奖的“蓝调吉他之神”埃里克·克莱普顿(Eric Clapton);是让无数人首次领略了什么是新世纪音乐、什么是天籁之声的爱尔兰天后歌手恩雅(Enya);是纵横影视歌坛三十余年,年青人个个都会唱的那首《相信》的演唱者切尔(Cher);是流行音乐史上最成功的瑞典流行乐队ABBA;是近两年风头最劲的著名爱尔兰四兄妹偶像实力派组合“柯尔兄妹乐团”(The Corrs)……,在这张唱片中出现的18位(支)流行歌手(组合),随便挑一位出来,都能写出长长的资历表和辉煌的唱片销售成绩单。他们虽成名于欧美流行音乐发展的各个时期,但都拥有共同的特点:超乎常人的天赋,强烈的个性音乐魅力,经历了长期的艰苦磨练。因此他们成长为“超级巨星”绝非因为偶然发迹。
      唱片公司为这些“超级巨星”选择的曲目都经过细心斟酌。基本上,所选择的歌曲虽然不尽是歌星们最脍炙人口的热歌,但都非常能代表歌星的音乐风格,整张专辑不显得流俗,而且有一定的品味。
    《超级巨星》这张唱片的音响性,是不能用我们平时评判发烧唱片音质的标准来考量的。这是因为主流流行音乐唱片和古典音乐唱片、发烧唱片的制作理念有较大的不同,发行录音时针对的消费市场也不一样。你应该想得到,听流行音乐的听众可不都是像我们一样人人一套Hi-Fi组合,大部分人曾用磁带、用收音机、用Walkman、在任何时地都能听流行音乐,而且听得摇头晃脑,一点也不比听Hi-Fi组合的觉得难受。因此流行音乐唱片的制作人必须在多轨录音的优缺点间寻找平衡,以便使成品表现出另一 种适应平民化播音器材所能传达的音效美感。所以当你播放这张《超级巨星》,觉得最顺耳过瘾、效果最好的时候,或许不是用你的Hi-Fi组合,而可能是在用你床头那部discman播的时候。你毋需寻根问底地去了解这是为什么,只需 知道《超级巨星》的录音制作人,在“坚持重要重播频段内的相对标准”这一点上,真的是做到了家。

专辑曲目
01 MADONNA - Frozen02 ERIC CLAPTON  -Change The World03 THE CORRS - What Can I Do04 ENYA - Orinoco Flow05 WET WET WET- Love Is All Around06 EITON JOHN - Candle In The Wind07 SHANIA TWAIN - That Don`t Impress Me Much08 RONAN KEATING  -Life Is A Rollercoaster09 BRYAN ADAMS - Can`t Stop Thing We Started10 BON JOVI  -Thess  Days11 R.E.M - Daysleeper12 BOYZONE - Picture Of You13 BEE GEES - You Win Again14 SIMPIY RED  -Stars15 CHER  -Strong Enough16 PHIL COLLINS- You Can`t Hurry Love17 ABBA - Super Trouper18 TINA TURNER -The Best
解码:htm1


Exact Audio Copy V0.99 prebeta 5 from 4. May 2009
EAC 抓取日志文件从8. 七月 2011, 16:40
华纳-原抓htm1 / 欧美超级巨星精选集
使用驱动器  :HL-DT-STDVDRAM GSA-T20N   Adapter: 5  ID: 0
读取模式     : 保护使用精确流   : 是废除音频缓冲 : 是使用 C2 指针 : 否
读取偏移校正                   : 6读取 Lead-In 和 Lead-Out       : 否用静音填充抓取中丢失偏移的采样 : 是去除首尾静音块                 : 否在 CRC 计算中使用了空样本      : 否已用接口                       : Win NT 及 2000 本地 Win32 接口间隙处理                       : 未检出,故附加至前一音轨
所用输出格式 : 内部 WAV 函数样本格式     : 44.100 Hz;16 Bit;立体声

被抓轨 CD 的 TOC
     音轨 |   开始   |   长度   | 起始扇区 | 结尾扇区     --------------------------------------------------       1  |  0:00.00 |  6:11.26 |       0  |   27850         2  |  6:11.26 |  3:55.06 |   27851  |   45481         3  | 10:06.32 |  4:18.19 |   45482  |   64850         4  | 14:24.51 |  4:26.19 |   64851  |   84819         5  | 18:50.70 |  4:03.38 |   84820  |  103082         6  | 22:54.33 |  3:49.36 |  103083  |  120293         7  | 26:43.69 |  3:56.28 |  120294  |  138021         8  | 30:40.22 |  3:55.28 |  138022  |  155674         9  | 34:35.50 |  4:28.09 |  155675  |  175783        10  | 39:03.59 |  4:31.02 |  175784  |  196110        11  | 43:34.61 |  3:38.17 |  196111  |  212477        12  | 47:13.03 |  3:28.71 |  212478  |  228148        13  | 50:41.74 |  4:02.03 |  228149  |  246301        14  | 54:44.02 |  4:08.43 |  246302  |  264944        15  | 58:52.45 |  3:41.69 |  264945  |  281588        16  | 62:34.39 |  2:52.57 |  281589  |  294545        17  | 65:27.21 |  4:12.15 |  294546  |  313460        18  | 69:39.36 |  4:08.39 |  313461  |  332099  

音轨  1
     文件名 G:\CD抓取29\欧美超级巨星精选集-华纳\Track01.wav
     峰值电平 96.8 %     音轨质量 100.0 %     复制 CRC C36C6D5F     复制成功
音轨  2
     文件名 G:\CD抓取29\欧美超级巨星精选集-华纳\Track02.wav
     峰值电平 90.0 %     音轨质量 99.9 %     复制 CRC 195E600C     复制成功
音轨  3
     文件名 G:\CD抓取29\欧美超级巨星精选集-华纳\Track03.wav
     峰值电平 91.0 %     音轨质量 100.0 %     复制 CRC A7408CCB     复制成功
音轨  4
     文件名 G:\CD抓取29\欧美超级巨星精选集-华纳\Track04.wav
     峰值电平 100.0 %     音轨质量 100.0 %     复制 CRC 129B26AD     复制成功
音轨  5
     文件名 G:\CD抓取29\欧美超级巨星精选集-华纳\Track05.wav
     峰值电平 96.4 %     音轨质量 100.0 %     复制 CRC C07B3633     复制成功
音轨  6
     文件名 G:\CD抓取29\欧美超级巨星精选集-华纳\Track06.wav
     峰值电平 98.8 %     音轨质量 99.9 %     复制 CRC 95915E07     复制成功
音轨  7
     文件名 G:\CD抓取29\欧美超级巨星精选集-华纳\Track07.wav
     峰值电平 93.9 %     音轨质量 100.0 %     复制 CRC 48F45036     复制成功
音轨  8
     文件名 G:\CD抓取29\欧美超级巨星精选集-华纳\Track08.wav
     峰值电平 100.0 %     音轨质量 100.0 %     复制 CRC BB607AF2     复制成功
音轨  9
     文件名 G:\CD抓取29\欧美超级巨星精选集-华纳\Track09.wav
     峰值电平 85.9 %     音轨质量 100.0 %     复制 CRC A7E5FC2E     复制成功
音轨 10
     文件名 G:\CD抓取29\欧美超级巨星精选集-华纳\Track10.wav
     峰值电平 97.5 %     音轨质量 100.0 %     复制 CRC B25F3B7F     复制成功
音轨 11
     文件名 G:\CD抓取29\欧美超级巨星精选集-华纳\Track11.wav
     峰值电平 100.0 %     音轨质量 100.0 %     复制 CRC 252940C5     复制成功
音轨 12
     文件名 G:\CD抓取29\欧美超级巨星精选集-华纳\Track12.wav
     峰值电平 100.0 %     音轨质量 100.0 %     复制 CRC D2E405F6     复制成功
音轨 13
     文件名 G:\CD抓取29\欧美超级巨星精选集-华纳\Track13.wav
     峰值电平 100.0 %     音轨质量 99.7 %     复制 CRC E87AFE6F     复制成功
音轨 14
     文件名 G:\CD抓取29\欧美超级巨星精选集-华纳\Track14.wav
     峰值电平 91.1 %     音轨质量 100.0 %     复制 CRC C58D3E9E     复制成功
音轨 15
     文件名 G:\CD抓取29\欧美超级巨星精选集-华纳\Track15.wav
     峰值电平 98.3 %     音轨质量 100.0 %     复制 CRC B7A07791     复制成功
音轨 16
     文件名 G:\CD抓取29\欧美超级巨星精选集-华纳\Track16.wav
     峰值电平 100.0 %     音轨质量 100.0 %     复制 CRC 7C056BF1     复制成功
音轨 17
     文件名 G:\CD抓取29\欧美超级巨星精选集-华纳\Track17.wav
     峰值电平 100.0 %     音轨质量 100.0 %     复制 CRC 77AC46EF     复制成功
音轨 18
     文件名 G:\CD抓取29\欧美超级巨星精选集-华纳\Track18.wav
     峰值电平 96.2 %     音轨质量 100.0 %     复制 CRC E7E7C082     复制成功
没有错误发生
状态报告结尾

下载地址:
游客,如果您要查看本帖隐藏内容请回复

评分

参与人数 1LP币 +10 收起 理由
pg8623383 + 10 赞一个!

查看全部评分

回复

举报

sfromn 发表于 2013-12-3 22:52 | 显示全部楼层
感谢楼主的共享
dhj5008 发表于 2013-12-12 20:52 | 显示全部楼层
xiexiefenxiang


vcdufo 发表于 2014-1-10 20:30 | 显示全部楼层

HAO
fox_uestc 发表于 2014-2-15 16:05 | 显示全部楼层
谢谢楼主分享
wg2601 发表于 2014-3-2 13:54 | 显示全部楼层

楼主辛苦了。谢谢资源共享。
wg2601 发表于 2014-3-2 14:10 | 显示全部楼层
好像有压缩密码的,能不能提供以下啊。
wang5888998 发表于 2014-4-13 18:50 | 显示全部楼层
ddddddddddddddddddddddddd
Osvaldo2011 发表于 2014-4-16 21:08 | 显示全部楼层
哦哦哦哦哦哦哦哦哦哦哦哦哦哦哦哦哦哦哦哦哦哦哦
pangsu 发表于 2014-4-17 23:45 | 显示全部楼层
感谢分享!
您需要登录后才可以回帖 登录 | 立即注册

本版积分规则

QQ|关于我们|联系我们|小黑屋|手机版|网站导航|爱黑胶论坛 ( 浙ICP备12031905号-5

GMT+8, 2016-12-6 23:57 , Processed in 0.180786 second(s), 29 queries .

Powered by Discuz! X3.2

杭州聆翔文化艺术策划有限公司

快速回复 返回顶部 返回列表