爱黑胶论坛

 找回密码
 立即注册

QQ登录

只需一步,快速开始

搜索
热搜: 清洗 保养 入门
查看: 3980|回复: 47

发烧非卖品分享 精挑细选(HDCD)[WAV/分轨/DBank]

  [复制链接]
爱黑胶 发表于 2013-3-18 15:44 | 显示全部楼层 |阅读模式
音帖名称:七拼八凑6 精挑细选(非卖品HDCD)歌      手:群星音乐资源:HDCD抓     轨:htm1音乐格式:WAV发     布:2011年11月24日简     介
此CD为近日购唱片 店家又一赠送试听碟,象上赠送碟一样,虽无包装只有简易塑纸外套,但碟片金光闪闪,做工也非同一般,14首歌曲大多是当下流行的新歌。因碟上没标出歌名,抓轨后既要找歌名又要定歌手,好辛苦!按老规矩抓轨后用软件检测了音轨(附检测日志)。
此帖仅供喜欢的乐友试听。不喜勿下!如给你添了麻烦,请见谅!


CD曲目
01 爱就是那样简单-杨茵茵02 奔向你-钟明秋03 无法原谅 -雨天04 梦的翅膀受了伤-段玫梅05 相思妹妹-周艳泓06 被伤过的心还可以爱谁-孙露07 赤裸离开-艾迪08 爱的供养-邓杰09 我不怪你也不恨你-王雅洁10 老男孩-阿强11 偷偷的哭-雷婷12 爱上你我傻乎乎-陈洁仪13 越唱越寂寞-雷婷14 红玫瑰与白玫瑰-云菲菲


解码:htm1
AUDIOCHECKER v2.0 beta (build 457)
开始于: 星期二, 22. 11. 2011. - 1:59.51找到14 个文件
01 -===- G:\CD抓取27\七拼八凑6 精挑细选非卖品\Track01.wav  结论: 该音轨有 99% 可能性为CD音源
02 -===- G:\CD抓取27\七拼八凑6 精挑细选非卖品\Track02.wav  结论: 该音轨有 100% 可能性为CD音源
03 -===- G:\CD抓取27\七拼八凑6 精挑细选非卖品\Track03.wav  结论: 该音轨有 100% 可能性为CD音源
04 -===- G:\CD抓取27\七拼八凑6 精挑细选非卖品\Track04.wav  结论: 该音轨有 99% 可能性为CD音源
05 -===- G:\CD抓取27\七拼八凑6 精挑细选非卖品\Track05.wav  结论: 该音轨有 99% 可能性为CD音源
06 -===- G:\CD抓取27\七拼八凑6 精挑细选非卖品\Track06.wav  结论: 该音轨有 100% 可能性为CD音源
07 -===- G:\CD抓取27\七拼八凑6 精挑细选非卖品\Track07.wav  结论: 该音轨有 100% 可能性为CD音源
08 -===- G:\CD抓取27\七拼八凑6 精挑细选非卖品\Track08.wav  结论: 该音轨有 100% 可能性为CD音源
09 -===- G:\CD抓取27\七拼八凑6 精挑细选非卖品\Track9.wav  结论: 该音轨有 94% 可能性为CD音源
10 -===- G:\CD抓取27\七拼八凑6 精挑细选非卖品\Track10.wav  结论: 该音轨有 100% 可能性为CD音源
11 -===- G:\CD抓取27\七拼八凑6 精挑细选非卖品\Track11.wav  结论: 该音轨有 100% 可能性为CD音源
12 -===- G:\CD抓取27\七拼八凑6 精挑细选非卖品\Track12.wav  结论: 该音轨有 100% 可能性为CD音源
13 -===- G:\CD抓取27\七拼八凑6 精挑细选非卖品\Track13.wav  结论: 该音轨有 100% 可能性为CD音源
14 -===- G:\CD抓取27\七拼八凑6 精挑细选非卖品\Track14.wav  结论: 该音轨有 100% 可能性为CD音源

完成于: 星期二, 22. 11. 2011. - 2:03.39 (处理用时: 0:03.48)

Exact Audio Copy V0.99 prebeta 5 from 4. May 2009
EAC 抓取日志文件从18. 十一月 2011, 2:02
原抓htm1 / 七拼八凑6 精挑细选非卖品
使用驱动器  :PIONEER DVD-RW  DVR-219L   Adapter: 2  ID: 2
读取模式     : 保护使用精确流   : 是废除音频缓冲 : 是使用 C2 指针 : 否
读取偏移校正                   : 6读取 Lead-In 和 Lead-Out       : 否用静音填充抓取中丢失偏移的采样 : 是去除首尾静音块                 : 否在 CRC 计算中使用了空样本      : 否已用接口                       : Win NT 及 2000 本地 Win32 接口间隙处理                       : 未检出,故附加至前一音轨
所用输出格式 : 内部 WAV 函数样本格式     : 44.100 Hz;16 Bit;立体声

被抓轨 CD 的 TOC
     音轨 |   开始   |   长度   | 起始扇区 | 结尾扇区     --------------------------------------------------       1  |  0:00.00 |  4:53.34 |       0  |   22008         2  |  4:53.34 |  3:50.36 |   22009  |   39294         3  |  8:43.70 |  4:16.08 |   39295  |   58502         4  | 13:00.03 |  4:22.60 |   58503  |   78212         5  | 17:22.63 |  4:12.58 |   78213  |   97170         6  | 21:35.46 |  3:32.27 |   97171  |  113097         7  | 25:07.73 |  5:00.10 |  113098  |  135607         8  | 30:08.08 |  4:16.08 |  135608  |  154815         9  | 34:24.16 |  3:28.35 |  154816  |  170450        10  | 37:52.51 |  4:20.64 |  170451  |  190014        11  | 42:13.40 |  4:59.64 |  190015  |  212503        12  | 47:13.29 |  5:33.22 |  212504  |  237500        13  | 52:46.51 |  3:58.63 |  237501  |  255413        14  | 56:45.39 |  5:35.60 |  255414  |  280598   

音轨  1
     文件名 G:\CD抓取27\七拼八凑6 精挑细选非卖品\Track01.wav
     峰值电平 61.0 %     音轨质量 100.0 %     复制 CRC 33C14F50     复制成功
音轨  2
     文件名 G:\CD抓取27\七拼八凑6 精挑细选非卖品\Track02.wav
     峰值电平 69.8 %     音轨质量 99.9 %     复制 CRC D0CD42DC     复制成功
音轨  3
     文件名 G:\CD抓取27\七拼八凑6 精挑细选非卖品\Track03.wav
     峰值电平 57.7 %     音轨质量 100.0 %     复制 CRC 833BCF09     复制成功
音轨  4
     文件名 G:\CD抓取27\七拼八凑6 精挑细选非卖品\Track04.wav
     峰值电平 76.3 %     音轨质量 100.0 %     复制 CRC F06DA07B     复制成功
音轨  5
     文件名 G:\CD抓取27\七拼八凑6 精挑细选非卖品\Track05.wav
     峰值电平 60.4 %     音轨质量 100.0 %     复制 CRC 3555ABE0     复制成功
音轨  6
     文件名 G:\CD抓取27\七拼八凑6 精挑细选非卖品\Track06.wav
     峰值电平 66.3 %     音轨质量 100.0 %     复制 CRC 21A6EBB3     复制成功
音轨  7
     文件名 G:\CD抓取27\七拼八凑6 精挑细选非卖品\Track07.wav
     峰值电平 76.0 %     音轨质量 100.0 %     复制 CRC 9FC5B968     复制成功
音轨  8
     文件名 G:\CD抓取27\七拼八凑6 精挑细选非卖品\Track08.wav
     峰值电平 66.2 %     音轨质量 100.0 %     复制 CRC C85553F6     复制成功
音轨  9
     文件名 G:\CD抓取27\七拼八凑6 精挑细选非卖品\Track09.wav
     峰值电平 57.1 %     音轨质量 100.0 %     复制 CRC 0DBE0ED2     复制成功
音轨 10
     文件名 G:\CD抓取27\七拼八凑6 精挑细选非卖品\Track10.wav
     峰值电平 70.9 %     音轨质量 100.0 %     复制 CRC 6F87A808     复制成功
音轨 11
     文件名 G:\CD抓取27\七拼八凑6 精挑细选非卖品\Track11.wav
     峰值电平 76.1 %     音轨质量 99.9 %     复制 CRC 03E90CA2     复制成功
音轨 12
     文件名 G:\CD抓取27\七拼八凑6 精挑细选非卖品\Track12.wav
     峰值电平 79.8 %     音轨质量 100.0 %     复制 CRC BC94E696     复制成功
音轨 13
     文件名 G:\CD抓取27\七拼八凑6 精挑细选非卖品\Track13.wav
     峰值电平 74.2 %     音轨质量 100.0 %     复制 CRC 944F3EEF     复制成功
音轨 14
     文件名 G:\CD抓取27\七拼八凑6 精挑细选非卖品\Track14.wav
     峰值电平 69.5 %     音轨质量 100.0 %     复制 CRC 274A54BA     复制成功
没有错误发生
状态报告结尾
下载地址:
游客,如果您要查看本帖隐藏内容请回复

回复

举报

ozbessalius 发表于 2013-3-20 23:30 | 显示全部楼层
没听过怎么办
dhj5008 发表于 2013-12-12 21:26 | 显示全部楼层
XIEXIELE
anyi38 发表于 2013-12-24 16:02 | 显示全部楼层
怎么没有下载地址?
 楼主| 爱黑胶 发表于 2013-12-24 16:36 | 显示全部楼层
anyi38 发表于 2013-12-24 16:02
怎么没有下载地址?

回复本帖就看到下载地址了。
fangyi611 发表于 2013-12-29 22:59 | 显示全部楼层
感谢楼主分享
zfx1324 发表于 2014-1-5 16:59 | 显示全部楼层
谢谢楼主分享
Z1122LL 发表于 2014-1-22 20:58 | 显示全部楼层
资源    谢谢分享
zhanyx1994 发表于 2014-2-7 19:13 | 显示全部楼层
能下不?
我的的 发表于 2014-2-22 12:28 | 显示全部楼层
haohaohahohaoahoahohaoaha
您需要登录后才可以回帖 登录 | 立即注册

本版积分规则

QQ|关于我们|联系我们|小黑屋|手机版|网站导航|爱黑胶论坛 ( 浙ICP备12031905号-5

GMT+8, 2016-12-5 18:28 , Processed in 0.153190 second(s), 25 queries .

Powered by Discuz! X3.2

杭州聆翔文化艺术策划有限公司

快速回复 返回顶部 返回列表